+ Reply to Thread
Results 1 to 2 of 2

Thread: Problems with Avid codec

  1. #1

    Problems with Avid codec

    Hello, I've had problems transcoding these files, any tip to make it?

    I installed LE 2.3.9 Avid codecs in QuickTime directory and nothing.

    I leave the metadata file.

    Thx.
    regards

    -------------------------------------------------
    General
    Format : MPEG-4
    Format profile : QuickTime
    Codec ID : qt
    File size : 12.4 GiB
    Duration : 34mn 29s
    Overall bit rate : 51.6 Mbps
    Encoded date : UTC 2011-05-11 14:35:03
    Tagged date : UTC 2011-05-11 14:40:03
    Writing library : Apple QuickTime

    Video
    ID : 1
    Format : MPEG Video
    Format version : Version 2
    Format profile : 4:2:2@Main
    Format settings, BVOP : No
    Format settings, Matrix : Custom
    Format settings, GOP : N=1
    Codec ID : AVmp
    Codec ID/Hint : Avid IMX
    Duration : 34mn 29s
    Bit rate mode : Constant
    Bit rate : 50.0 Mbps
    Width : 720 pixels
    Height : 486 pixels
    Original height : 512 pixels
    Display aspect ratio : 3:2
    Original display aspect ratio : 4:3
    Frame rate mode : Constant
    Frame rate : 29.970 fps
    Standard : NTSC
    Color space : YUV
    Chroma subsampling : 4:2:2
    Bit depth : 8 bits
    Scan type : Interlaced
    Scan order : Top Field First
    Compression mode : Lossy
    Bits/(Pixel*Frame) : 4.768
    Stream size : 12.1 GiB (97%)
    Title : Gestor de contenido de vídeo Apple / Gestor de datos de alias Apple
    Writing library : AVID TECHNOLOGY, INC. CODEC
    Language : English
    Encoded date : UTC 2011-05-11 14:35:03
    Tagged date : UTC 2011-05-11 14:40:03

    Audio
    ID : 2
    Format : PCM
    Format settings, Endianness : Big
    Format settings, Sign : Signed
    Codec ID : twos
    Duration : 34mn 29s
    Bit rate mode : Constant
    Bit rate : 1 536 Kbps
    Channel(s) : 2 channels
    Channel positions : Front: L R
    Sampling rate : 48.0 KHz
    Bit depth : 16 bits
    Stream size : 379 MiB (3%)
    Title : Gestor de contenido de sonido Apple / Gestor de datos de alias Apple
    Language : English
    Encoded date : UTC 2011-05-11 14:35:03
    Tagged date : UTC 2011-05-11 14:40:03

    Other
    ID : 3
    Type : Time code
    Format : QuickTime TC
    Duration : 34mn 29s
    Time code of first frame : 01:00:00:00
    Time code settings : Striped
    Title : Gestor de códigos de tiempo / Gestor de datos de alias Apple
    Language : English
    Encoded date : UTC 2011-05-11 14:40:03
    Tagged date : UTC 2011-05-11 14:40:03

  2. #2
    Well, I solved this problem using ffmpeg reader for mov extention

+ Reply to Thread

Posting Permissions

  • You may not post new threads
  • You may not post replies
  • You may not post attachments
  • You may not edit your posts